Aller au contenu

kyl83

Moderateurs
  • Compteur de contenus

    212
  • Inscription

  • Dernière visite

Réputation sur la communauté

308 Excellent

À propos de kyl83

Visiteurs récents du profil

369 visualisations du profil
  1. HEY @LL Présentation du staff de NZB NEWZ FRANCE !!! chez Star wars
  2. HI la Team .. SIGNATURES by GUEUT..Faites votre demande (faut que je fasse ma demande ..pas faite encore..mdr)
  3. HI ALL The.Walk.2015.FRENCH.BDRip.x264 (RÊVER PLUS HAUT) Hommage aux victimes des tours du world center(RIP) SYNOPSIS ET DÉTAILS: Biopic sur le funambule français Philippe Petit, célèbre pour avoir joint en 1974 les deux tours du World Trade Center sur un fil, suspendu au-dessus du vide. Au début des années 1970, le funambule Philippe Petit est connu pour avoir parcouru de longues distances sur un fil tendu au-dessus du vide. Il l'a déjà fait à Notre-Dame de Paris, ou encore sur le Harbour Bridge de Sydney. En 1974, il se penche sur un nouveau projet encore plus fou. Il va tenter de réaliser son rêve : rejoindre sur un fil les deux tours du World Trade Center de New York, hautes de plus de 410 mètres. General: Complete name : The.Walk.2015.FRENCH.BDRip.x264-VENUE.mkv Format : Matroska Format version : Version 4 / Version 2 File size : 740 MiB Duration : 2 h 3 min Overall bit rate : 839 kb/s Encoded date : UTC 2015-12-17 23:17:17 Writing application : mkvmerge v8.3.0 ('Over the Horizon') 64bit Writing library : libebml v1.3.1 + libmatroska v1.4.2 Video ID : 1 Format : AVC Format/Info : Advanced Video Codec Format profile : High@L3.1 Format settings : CABAC / 5 Ref Frames Format settings, CABAC : Yes Format settings, ReFrames : 5 frames Codec ID : V_MPEG4/ISO/AVC Duration : 2 h 3 min Bit rate : 720 kb/s Width : 720 pixels Height : 300 pixels Display aspect ratio : 2.40:1 Frame rate mode : Constant Frame rate : 23.976 FPS Color space : YUV Chroma subsampling : 4:2:0 Bit depth : 8 bits Scan type : Progressive Bits/(Pixel*Frame) : 0.139 Stream size : 634 MiB (86%) Writing library : x264 core 148 r2638 7599210 Language : English Default : Yes Forced : No Color range : Limited Matrix coefficients : BT.709 Audio ID : 2 Format : AAC Format/Info : Advanced Audio Codec Format profile : LC Codec ID : A_AAC-2 Duration : 2 h 3 min Bit rate : 118 kb/s Channel(s) : 2 channels Channel positions : Front: L R Sampling rate : 48.0 kHz Frame rate : 46.875 FPS (1024 SPF) Compression mode : Lossy Stream size : 104 MiB (14%) Language : French Default : Yes Forced : No Text #1 ID : 3 Format : UTF-8 Codec ID : S_TEXT/UTF8 Codec ID/Info : UTF-8 Plain Text Duration : 2 h 1 min Bit rate : 45 b/s Count of elements : 1217 Stream size : 40.3 KiB (0%) Language : French Default : No Forced : No Text #2 ID : 4 Format : UTF-8 Codec ID : S_TEXT/UTF8 Codec ID/Info : UTF-8 Plain Text Duration : 1 h 26 min Bit rate : 0 b/s Count of elements : 10 Stream size : 287 Bytes (0%) Title : Forced Language : French Default : Yes Forced : Yes
  4. HI ALL Transcendance.2014.TRUEFRENCH.DVDRip.x264.AC3 SYNOPSIS ET DÉTAILS: Dans un futur proche, un groupe de scientifiques tente de concevoir le premier ordinateur doté d’une conscience et capable de réfléchir de manière autonome. Ils doivent faire face aux attaques de terroristes anti-technologies qui voient dans ce projet une menace pour l’espèce humaine. Lorsque le scientifique à la tête du projet est assassiné, sa femme se sert de l’avancée de ses travaux pour « transcender » l’esprit de son mari dans le premier super ordinateur de l’histoire. Pouvant désormais contrôler tous les réseaux liés à internet, il devient ainsi quasi omnipotent. Mais comment l’arrêter s’il perdait ce qui lui reste d’humanité ? General: Complete name : Transcendance.2014.TRUEFRENCH.DVDRip.x264.AC3-DesTroY.mkv Format : Matroska Format version : Version 2 File size : 916 MiB Duration : 1 h 54 min Overall bit rate : 1 120 kb/s Encoded date : UTC 2014-10-25 06:37:57 Writing application : mkvmerge v6.5.0 ('Isn't she lovely') built on Oct 20 2013 12:50:05 Writing library : libebml v1.3.0 + libmatroska v1.4.1 Video ID : 1 Format : AVC Format/Info : Advanced Video Codec Format profile : High@L3.1 Format settings : CABAC / 5 Ref Frames Format settings, CABAC : Yes Format settings, ReFrames : 5 frames Codec ID : V_MPEG4/ISO/AVC Duration : 1 h 54 min Bit rate : 649 kb/s Width : 704 pixels Height : 304 pixels Display aspect ratio : 2.35:1 Frame rate mode : Constant Frame rate : 25.000 FPS Color space : YUV Chroma subsampling : 4:2:0 Bit depth : 8 bits Scan type : Progressive Bits/(Pixel*Frame) : 0.121 Stream size : 531 MiB (58%) Writing library : x264 core 142 r2479 dd79a61 Default : Yes Forced : No Audio ID : 2 Format : AC-3 Format/Info : Audio Coding 3 Codec ID : A_AC3 Duration : 1 h 54 min Bit rate mode : Constant Bit rate : 448 kb/s Channel(s) : 6 channels Channel positions : Front: L C R, Side: L R, LFE Sampling rate : 48.0 kHz Frame rate : 31.250 FPS (1536 SPF) Bit depth : 16 bits Compression mode : Lossy Stream size : 366 MiB (40%) Service kind : Complete Main Default : Yes Forced : No
  5. HI ALL Tucker-&-Dale-Fightent-le-Mal-2012_BlurayRip-H264_AC3-5.1-FR-ENG. sur mega SYNOPSIS ET DÉTAILS Interdit aux moins de 12 ans Tucker et Dale sont deux gentils péquenauds venus se ressourcer en forêt. Ils y rencontrent des étudiants venus faire la fête. Suite à un quiproquo entraînant la mort d’un des jeunes, ces derniers pensent que Tucker et Dale sont des serial killers qui veulent leur peau, alors que nos héros pensent que les jeunes font partie d’une secte et qu’ils sont là pour un suicide collectif ! C’est le début d’un gigantesque malentendu dans lequel horreur et hilarité vont se mélanger. General: Complete name : K:\divx\Tucker-&-Dale-Fightent-le-Mal-2012_BlurayRip-H264_AC3-5.1-FR-ENG.mkv Format : Matroska Format version : Version 4 / Version 2 File size : 1.08 GiB Duration : 1 h 28 min Overall bit rate : 1 738 kb/s Encoded date : UTC 2013-05-31 23:49:41 Writing application : mkvmerge v6.2.0 ('Promised Land') built on Apr 28 2013 12:22:01 Writing library : libebml v1.3.0 + libmatroska v1.4.0 Video ID : 1 Format : AVC Format/Info : Advanced Video Codec Format profile : High@L4.1 Format settings : CABAC / 3 Ref Frames Format settings, CABAC : Yes Format settings, ReFrames : 3 frames Codec ID : V_MPEG4/ISO/AVC Duration : 1 h 28 min Bit rate : 808 kb/s Width : 720 pixels Height : 480 pixels Display aspect ratio : 16:9 Original display aspect ratio : 16:9 Frame rate mode : Constant Frame rate : 23.976 (24000/1001) FPS Color space : YUV Chroma subsampling : 4:2:0 Bit depth : 8 bits Scan type : Progressive Bits/(Pixel*Frame) : 0.097 Stream size : 513 MiB (46%) Writing library : x264 core 120 Language : English Default : Yes Forced : No Color range : Limited Color primaries : BT.709 Transfer characteristics : BT.709 Matrix coefficients : BT.709 Audio #1 ID : 2 Format : AC-3 Format/Info : Audio Coding 3 Codec ID : A_AC3 Duration : 1 h 28 min Bit rate mode : Constant Bit rate : 448 kb/s Channel(s) : 6 channels Channel positions : Front: L C R, Side: L R, LFE Sampling rate : 48.0 kHz Frame rate : 31.250 FPS (1536 SPF) Bit depth : 16 bits Compression mode : Lossy Stream size : 285 MiB (26%) Language : French Service kind : Complete Main Default : Yes Forced : No Audio #2 ID : 3 Format : AC-3 Format/Info : Audio Coding 3 Codec ID : A_AC3 Duration : 1 h 28 min Bit rate mode : Constant Bit rate : 448 kb/s Channel(s) : 6 channels Channel positions : Front: L C R, Side: L R, LFE Sampling rate : 48.0 kHz Frame rate : 31.250 FPS (1536 SPF) Bit depth : 16 bits Compression mode : Lossy Stream size : 285 MiB (26%) Language : English Service kind : Complete Main Default : No Forced : No Text #1 ID : 4 Format : UTF-8 Codec ID : S_TEXT/UTF8 Codec ID/Info : UTF-8 Plain Text Language : French Default : Yes Forced : No Text #2 ID : 5 Format : UTF-8 Codec ID : S_TEXT/UTF8 Codec ID/Info : UTF-8 Plain Text Language : French Default : No Forced : No
  6. HI ALL Les Mémoires D'un Assassin International.mkv sur mega SYNOPSIS ET DÉTAILS: Un comptable qui aspire à devenir écrivain est pris par erreur pour un tueur à gages le jour où son roman sur un assassin de classe internationale est édité comme une histoire vraie. General: Complete name : Les Mémoires D'un Assassin International.mkv Format : MPEG-4 Format profile : Base Media / Version 2 Codec ID : mp42 (isom/iso2/avc1/mp41) File size : 1.78 GiB Duration : 1 h 33 min Overall bit rate : 2 731 kb/s Encoded date : UTC 2016-11-11 20:31:26 Tagged date : UTC 2016-11-11 20:31:26 Writing application : HandBrake 0.10.5 2016021100 Video ID : 1 Format : AVC Format/Info : Advanced Video Codec Format profile : High@L4.1 Format settings : CABAC / 5 Ref Frames Format settings, CABAC : Yes Format settings, ReFrames : 5 frames Codec ID : avc1 Codec ID/Info : Advanced Video Coding Duration : 1 h 33 min Bit rate : 2 500 kb/s Width : 1 280 pixels Height : 538 pixels Display aspect ratio : 2.40:1 Frame rate mode : Constant Frame rate : 60.000 FPS Color space : YUV Chroma subsampling : 4:2:0 Bit depth : 8 bits Scan type : Progressive Bits/(Pixel*Frame) : 0.061 Stream size : 1.63 GiB (91%) Writing library : x264 core 142 r2479 dd79a61 Color range : Limited Color primaries : BT.709 Transfer characteristics : BT.709 Matrix coefficients : BT.709 Audio ID : 2 Format : AC-3 Format/Info : Audio Coding 3 Codec ID : ac-3 Duration : 1 h 33 min Bit rate mode : Constant Bit rate : 224 kb/s Channel(s) : 2 channels Channel positions : Front: L R Sampling rate : 44.1 kHz Frame rate : 28.711 FPS (1536 SPF) Bit depth : 16 bits Compression mode : Lossy Stream size : 150 MiB (8%) Title : Stereo / Stereo Service kind : Complete Main Default : Yes Alternate group : 1
  7. HI ALL Comancheria (2016) son dts.mkv sur mega SYNOPSIS ET DÉTAILS: Avertissement : des scènes, des propos ou des images peuvent heurter la sensibilité des spectateurs Après la mort de leur mère, deux frères organisent une série de braquages, visant uniquement les agences d’une même banque. Ils n’ont que quelques jours pour éviter la saisie de leur propriété familiale, et comptent rembourser la banque avec son propre argent. À leurs trousses, un ranger bientôt à la retraite et son adjoint, bien décidés à les arrêter. General: Complete name :Comancheria (2016) son dts.mkv Format : Matroska Format version : Version 4 / Version 2 File size : 1.98 GiB Duration : 1 h 42 min Overall bit rate : 2 779 kb/s Encoded date : UTC 2016-11-26 10:06:37 Writing application : mkvmerge v9.5.0 ('Quiet Fire') 64bit Writing library : libebml v1.3.4 + libmatroska v1.4.5 Video ID : 1 Format : AVC Format/Info : Advanced Video Codec Format profile : High@L3.1 Format settings : CABAC / 2 Ref Frames Format settings, CABAC : Yes Format settings, ReFrames : 2 frames Codec ID : V_MPEG4/ISO/AVC Duration : 1 h 42 min Bit rate : 2 008 kb/s Width : 1 024 pixels Height : 426 pixels Display aspect ratio : 2.40:1 Frame rate mode : Constant Frame rate : 23.976 (24000/1001) FPS Color space : YUV Chroma subsampling : 4:2:0 Bit depth : 8 bits Scan type : Progressive Bits/(Pixel*Frame) : 0.192 Stream size : 1.43 GiB (72%) Language : French Default : Yes Forced : No Audio ID : 2 Format : DTS Format/Info : Digital Theater Systems Codec ID : A_DTS Duration : 1 h 42 min Bit rate mode : Constant Bit rate : 769 kb/s Channel(s) : 6 channels Channel positions : Front: L C R, Side: L R, LFE Sampling rate : 44.1 kHz Frame rate : 86.133 FPS (512 SPF) Bit depth : 24 bits Compression mode : Lossy Stream size : 561 MiB (28%) Language : French Default : Yes Forced : No Text #1 ID : 3 Format : UTF-8 Codec ID : S_TEXT/UTF8 Codec ID/Info : UTF-8 Plain Text Duration : 1 h 34 min Bit rate : 0 b/s Count of elements : 4 Stream size : 116 Bytes (0%) Language : French Default : Yes Forced : Yes Text #2 ID : 4 Format : UTF-8 Codec ID : S_TEXT/UTF8 Codec ID/Info : UTF-8 Plain Text Duration : 1 h 39 min Bit rate : 60 b/s Count of elements : 1334 Stream size : 44.5 KiB (0%) Language : French Default : No Forced : No
  8. kyl83

    Bonjour

    Hello & bienvenue ultra
  9. kyl83

    Hoy !

    Hello & bienvenue Xantar
  10. HI ALL Tom.yum.goong.2.2013.stv.french.bdrip.x264 sur mega L'Honneur du dragon 2 General: Complete name : tom.yum.goong.2.2013.stv.french.bdrip.x264-deal.mkv Format : Matroska Format version : Version 4 / Version 2 File size : 936 MiB Duration : 1 h 44 min Overall bit rate : 1 251 kb/s Encoded date : UTC 2015-01-04 09:43:11 Writing application : mkvmerge v7.4.0 ('Circles') 64bit built on Dec 12 2014 12:19:56 Writing library : libebml v1.3.0 + libmatroska v1.4.1 Video ID : 1 Format : AVC Format/Info : Advanced Video Codec Format profile : High@L3.1 Format settings : CABAC / 5 Ref Frames Format settings, CABAC : Yes Format settings, ReFrames : 5 frames Codec ID : V_MPEG4/ISO/AVC Duration : 1 h 44 min Bit rate : 1 120 kb/s Width : 720 pixels Height : 306 pixels Display aspect ratio : 2.35:1 Frame rate mode : Constant Frame rate : 23.976 (24000/1001) FPS Color space : YUV Chroma subsampling : 4:2:0 Bit depth : 8 bits Scan type : Progressive Bits/(Pixel*Frame) : 0.212 Stream size : 839 MiB (90%) Title : DEAL - Tom Yum - BDRip Writing library : x264 core 144 r2525 40bb568 Language : tai Default : Yes Forced : No Color range : Limited Matrix coefficients : BT.709 Audio ID : 2 Format : AAC Format/Info : Advanced Audio Codec Format profile : LC Codec ID : A_AAC-2 Duration : 1 h 44 min Bit rate : 128 kb/s Channel(s) : 2 channels Channel positions : Front: L R Sampling rate : 48.0 kHz Frame rate : 46.875 FPS (1024 SPF) Compression mode : Lossy Delay relative to video : 9 ms Stream size : 95.8 MiB (10%) Title : French AAC Language : French Default : Yes Forced : No Text ID : 3 Format : UTF-8 Codec ID : S_TEXT/UTF8 Codec ID/Info : UTF-8 Plain Text Duration : 47 min 24 s Bit rate : 1 b/s Count of elements : 16 Stream size : 636 Bytes (0%) Title : French Forced Language : French Default : Yes Forced : No
  11. HI ALL Welcome.To.The.Punch (2013).mkv sur mega General: Complete name : Welcome.To.The.Punch (2013).mkv Format : Matroska Format version : Version 2 File size : 1.01 GiB Duration : 1 h 35 min Overall bit rate : 1 507 kb/s Movie name : Welcome.To.The.Punch (2013) Encoded date : UTC 2015-09-21 11:48:02 Writing application : DVDFab 9.2.1.1 Writing library : libebml v0.7.8 + libmatroska v0.8.1 Video ID : 1 Format : AVC Format/Info : Advanced Video Codec Format profile : High@L3 Format settings : CABAC / 1 Ref Frames Format settings, CABAC : Yes Format settings, ReFrames : 1 frame Format settings, GOP : M=1, N=24 Codec ID : V_MPEG4/ISO/AVC Duration : 1 h 35 min Bit rate mode : Constant Nominal bit rate : 1 080 kb/s Width : 720 pixels Height : 300 pixels Display aspect ratio : 2.40:1 Frame rate mode : Constant Frame rate : 25.000 FPS Color space : YUV Chroma subsampling : 4:2:0 Bit depth : 8 bits Scan type : Progressive Bits/(Pixel*Frame) : 0.200 Default : Yes Forced : No Color range : Limited Color primaries : BT.709 Transfer characteristics : BT.709 Matrix coefficients : BT.709 Audio #1 ID : 4 Format : AAC Format/Info : Advanced Audio Codec Format profile : LC Codec ID : A_AAC-2 Duration : 1 h 35 min Channel(s) : 6 channels Channel positions : Front: L C R, Side: L R, LFE Sampling rate : 48.0 kHz Frame rate : 46.875 FPS (1024 SPF) Compression mode : Lossy Language : French Default : Yes Forced : No Audio #2 ID : 5 Format : AAC Format/Info : Advanced Audio Codec Format profile : LC Codec ID : A_AAC-2 Duration : 1 h 35 min Channel(s) : 6 channels Channel positions : Front: L C R, Side: L R, LFE Sampling rate : 48.0 kHz Frame rate : 46.875 FPS (1024 SPF) Compression mode : Lossy Language : English Default : No Forced : No Text #1 ID : 2 Format : VobSub Codec ID : S_VOBSUB Codec ID/Info : Picture based subtitle format used on DVDs Language : French Default : No Forced : No Text #2 ID : 3 Format : VobSub Codec ID : S_VOBSUB Codec ID/Info : Picture based subtitle format used on DVDs Language : French Default : No Forced : No
  12. HI ALL Scouts.Guide.to.the.Zombie.Apocalypse.2015.FRENCH.HDRip.x264 sur mega MANUEL DE SURVIE À L'APOCALYPSE ZOMBIE SYNOPSIS ET DÉTAILS: Trois scouts, amis depuis toujours, s’allient avec une serveuse badass pour devenir l’équipe de héros la plus improbable qu’il soit. Quand leur paisible ville est ravagée par une invasion de zombies, ils vont devoir se battre pour survivre et mettre leurs compétences de scouts à profit pour sauver l’humanité des zombies. General: Complete name : Scouts.Guide.to.the.Zombie.Apocalypse.2015.FRENCH.HDRip.x264-EXTREME.mkv Format : Matroska Format version : Version 4 / Version 2 File size : 676 MiB Duration : 1 h 33 min Overall bit rate : 1 015 kb/s Movie name : wWw.Ex-Down.CoM Encoded date : UTC 2015-12-08 22:10:03 Writing application : mkvmerge v7.4.0 ('Circles') 64bit built on Dec 12 2014 12:19:56 Writing library : libebml v1.3.0 + libmatroska v1.4.1 Video ID : 1 Format : AVC Format/Info : Advanced Video Codec Format profile : High@L3.1 Format settings : CABAC / 5 Ref Frames Format settings, CABAC : Yes Format settings, ReFrames : 5 frames Codec ID : V_MPEG4/ISO/AVC Duration : 1 h 33 min Bit rate : 889 kb/s Width : 720 pixels Height : 304 pixels Display aspect ratio : 2.35:1 Frame rate mode : Constant Frame rate : 23.976 (24000/1001) FPS Color space : YUV Chroma subsampling : 4:2:0 Bit depth : 8 bits Scan type : Progressive Bits/(Pixel*Frame) : 0.169 Stream size : 592 MiB (88%) Writing library : x264 core 148 r2638 7599210 Default : Yes Forced : No Audio ID : 2 Format : AAC Format/Info : Advanced Audio Codec Format profile : LC Codec ID : A_AAC-2 Duration : 1 h 32 min Bit rate : 125 kb/s Channel(s) : 2 channels Channel positions : Front: L R Sampling rate : 44.1 kHz Frame rate : 43.066 FPS (1024 SPF) Compression mode : Lossy Stream size : 82.6 MiB (12%) Language : French Default : Yes Forced : No
  13. kyl83

    BON HALLOWEEN A TOUS !!!!

    Merci à tous ...sympa !!
  14. grand merci à tous ...sympa !!!
  15. HI ALL Aperçu et Contenu du Forum (visiteurs)

(–`·._.· IMPORTANT! ·._.·´–)

Pour information, nzbnewzfrance.eu.com n'heberge aucun fichier. La loi française vous autorise a télécharger un fichier seulement si vous en possédez l'original. Ni nzbnewzfrance.eu.com, ni nos hebergeurs, ni personne ne pourront êtres tenu responsables d'une mauvaise utilisation de ce site.

×